The Shallows (2016) 2160p 4K UltraHD BluRay (x265 HEVC 10bit) Multi DTSHD-MA MSubs -DDR torrent

Sonia Jan 6, 2017

  1. Sonia

    Sonia Administrator Staff Member

    3,015
    117
    63
    Torrent Description

    [​IMG]

    2160p UHD 4K Blu-Ray Rip
    HEVC 10 Bits BT709

    English DTSHD-MA 5.1 Audio
    French DTSHD-MA 5.1 Audio

    English + French Subtitle(s)

    SCREENSHOTS
    [​IMG] [​IMG] [​IMG] [​IMG] [​IMG] [​IMG] [​IMG] [​IMG] [​IMG] [​IMG]

    SPECS

    Note:
    Audio + Subs + Chapter files are from BD50 HD Blu-Ray synced and mixed to UHD-4K Video from ZEUS.

    High End CPU + GPU is required to play very high bitrate 4K.
    Fully tested with :
    - PC with PotPlayer V 1.6 / Xeon Broadwell CPU / NVidia GTX1080
    - Nvidia Shield streaming through PLEX on Samsung TV

    Format : Matroska
    File size : 40.4 GiB
    Duration : 1 h 26 min
    Overall bit rate : 66.6 Mb/s

    Video
    Format : HEVC
    Format/Info : High Efficiency Video Coding
    Format profile : Main 10@L6.1@Main
    Codec ID : V_MPEGH/ISO/HEVC
    Duration : 1 h 26 min
    Bit rate : 59.8 Mb/s
    Width : 3 840 pixels
    Height : 2 160 pixels
    Display aspect ratio : 16:9
    Frame rate mode : Constant
    Frame rate : 23.976 (24000/1001) FPS
    Color space : YUV
    Chroma subsampling : 4:2:0
    Bit depth : 10 bits
    Bits/(Pixel*Frame) : 0.301
    Stream size : 36.3 GiB (90%)
    Writing library : x265 1.9+3-63308f7658c3:[Windows][GCC 5.2.0][64 bit] 10bit
    Encoding settings : wpp / ctu=64 / min-cu-size=8 / max-tu-size=32 / tu-intra-depth=1 / tu-inter-depth=1 / me=1 / subme=2 / merange=57 / no-rect / no-amp / max-merge=2 / temporal-mvp / no-early-skip / rdpenalty=0 / no-tskip / no-tskip-fast / strong-intra-smoothing / no-lossless / no-cu-lossless / no-constrained-intra / no-fast-intra / open-gop / no-temporal-layers / interlace=0 / keyint=240 / min-keyint=24 / scenecut=40 / rc-lookahead=20 / lookahead-slices=8 / bframes=4 / bframe-bias=0 / b-adapt=2 / ref=3 / limit-refs=3 / no-limit-modes / weightp / no-weightb / aq-mode=1 / qg-size=32 / aq-strength=1.00 / cbqpoffs=0 / crqpoffs=0 / rd=3 / psy-rd=2.00 / rdoq-level=0 / psy-rdoq=0.00 / signhide / deblock / sao / no-sao-non-deblock / b-pyramid / cutree / no-intra-refresh / rc=abr / bitrate=61000 / qcomp=0.60 / qpmin=0 / qpmax=51 / qpstep=4 / ipratio=1.40 / pbratio=1.30
    Language : English
    Default : Yes
    Forced : No
    Color range : Limited
    Color primaries : BT.709
    Transfer characteristics : BT.709
    Matrix coefficients : BT.601

    Audio #1
    ID : 2
    Format : DTS
    Format/Info : Digital Theater Systems
    Format profile : MA / Core
    Mode : 16
    Format settings, Endianness : Big
    Codec ID : A_DTS
    Duration : 1 h 26 min
    Bit rate mode : Variable / Constant
    Bit rate : 3 840 kb/s / 1 509 kb/s
    Channel(s) : 6 channels
    Channel positions : Front: L C R, Side: L R, LFE
    Sampling rate : 48.0 kHz
    Frame rate : 93.750 FPS (512 spf)
    Bit depth : 24 bits
    Compression mode : Lossless / Lossy
    Delay relative to video : 24 s 995 ms
    Stream size : 2.33 GiB (6%)
    Title : VO DTS HD-MA 5.1 @ 3861Kbps
    Language : English
    Default : No
    Forced : No

    Audio #2
    ID : 3
    Format : DTS
    Format/Info : Digital Theater Systems
    Format profile : MA / Core
    Mode : 16
    Format settings, Endianness : Big
    Codec ID : A_DTS
    Duration : 1 h 26 min
    Bit rate mode : Variable / Constant
    Bit rate : 2 879 kb/s / 1 509 kb/s
    Channel(s) : 6 channels
    Channel positions : Front: L C R, Side: L R, LFE
    Sampling rate : 48.0 kHz
    Frame rate : 93.750 FPS (512 spf)
    Bit depth : 24 bits
    Compression mode : Lossless / Lossy
    Delay relative to video : 24 s 995 ms
    Stream size : 1.73 GiB (4%)
    Title : VFF DTS HD-MA 5.1 @ 2861Kbps
    Language : French
    Default : Yes
    Forced : Yes



    Chapters : YES
     

    Attached Files:

Users Who Have Read This Thread (Total: 3)