3MSC [Español] DvdRip.avi

Sonia Dec 30, 2016

  1. Sonia

    Sonia Administrator Staff Member

    3,014
    117
    63



    Título original
    3 metros sobre el cielo (Tres metros sobre el cielo) (3MSC)

    Año
    2010

    Duración
    120 min.

    País
    [España] España

    Director
    Fernando González Molina

    Guión
    Ramón Salazar (Novela: Federico Moccia)

    Música
    Manel Santisteban

    Fotografía
    Daniel Aranyó

    Reparto
    Mario Casas, María Valverde, Álvaro Cervantes, Marina Salas, Nerea Camacho, Cristina Plazas, Jordi Bosch, Diego Martín, Clara Segura, Luis Fernández, Andrea Duro, Pablo Rivero, Marcel Borrás, Joan Crosas

    Productora
    Antena 3 Films

    Género
    Romance. Drama | Drama romántico. Adolescencia. Remake

    Web Oficial
    http://www.3msc.es/



    Sinopsis
    En Barcelona, dos jóvenes que pertenecen a mundos opuestos se conocen. Ella, la dulce Babi (María Valverde), es una chica de clase alta que vive en un entorno tan protegido como poco excitante. Él, Hugo (Mario Casas), conocido como el duro "H", es un chico impulsivo e irresponsable, aficionado a las peleas y a las carreras ilegales de motos. Esta es la crónica de un amor inicialmente imposible que arrastrará a ambos a un frenético viaje iniciático a través del cual descubrirán el amor. (FILMAFFINITY)

    Premios
    2010: Nominada al Goya: Mejor guión adaptado

    [​IMG]
    [​IMG]
    [​IMG]
    [​IMG]
    [​IMG]

    [​IMG][​IMG]



    General
    Complete name : 3MSC [Español] DvdRip.avi
    Format : AVI
    Format/Info : Audio Video Interleave
    Format profile : OpenDML
    File size : 1.28 GiB
    Duration : 1h 57mn
    Overall bit rate : 1 552 Kbps
    Movie name : 3_METROS_SOBRE_EL_CIELO.Title1.DVDRip
    Writing application : Lavf52.78.4
    Original source form/Name : 3_METROS_SOBRE_EL_CIELO

    Video
    ID : 0
    Format : MPEG-4 Visual
    Format profile : Advanced Simple@L5
    Format settings, BVOP : 2
    Format settings, QPel : No
    Format settings, GMC : No warppoints
    Format settings, Matrix : Default (H.263)
    Muxing mode : Packed bitstream
    Codec ID : DX50
    Codec ID/Hint : DivX 5
    Duration : 1h 57mn
    Bit rate : 281 Kbps
    Width : 720 pixels
    Height : 306 pixels

    Display aspect ratio : 2.35:1
    Frame rate : 25.000 fps
    Color space : YUV
    Chroma subsampling : 4:2:0
    Bit depth : 8 bits
    Scan type : Progressive
    Compression mode : Lossy
    Bits/(Pixel*Frame) : 0.051
    Stream size : 237 MiB (18%)
    Writing library : XviD 1.2.1 (UTC 2008-12-04)

    Audio
    ID : 1
    Format : AC-3
    Format/Info : Audio Coding 3
    Mode extension : CM (complete main)
    Codec ID : 2000
    Duration : 1h 57mn
    Bit rate mode : Constant
    Bit rate : 448 Kbps
    Channel(s) : 6 channels
    Channel positions : Front: L C R, Side: L R, LFE
    Sampling rate : 48.0 KHz
    Bit depth : 16 bits
    Compression mode : Lossy
    Stream size : 82.1 MiB (6%)
    Alignment : Aligned on interleaves
    Interleave, duration : 39 ms (0.97 video frame)
     

    Attached Files:

Users Who Have Read This Thread (Total: 2)